Artist
2022 0-9 z y x w v u t s r q p o n m l k j i h g f e d c b a

IQ - Resistance '2019

Resistance
ArtistIQ Related artists
Album name Resistance
Country
Date 2019
GenreProgressive Rock
Play time 2CD (00:52:58 + 00:55:38)
Format / Bitrate Stereo 1420 Kbps / 44.1 kHz
MP3 320 Kbps
Media CD
Size 772 / 271 Mb (Covers)
Price Pre-order Free, Stream Free, Download $2.95
Order this album and it will be available for purchase and further download within 12 hours
Pre-order album

Tracks list

 |  | 
***************
Track List CD1:

01. A Missile [0:06:39.74]
02. Rise [0:06:49.31]
03. Stay Down [0:07:54.41]
04. Alampandria [0:03:47.64]
05. Shallow Bay [0:06:21.05]
06. If Anything [0:06:03.01]
07. For Another Lifetime [0:15:21.73]

 Exact Audio Copy V1.3 from 2. September 2016

EAC extraction logfile from 23. October 2019, 17:55

IQ / Resistance (CD1)[GEPCD1064-1]

Used drive : HL-DT-STBD-RE BH10LS38 Adapter: 1 ID: 0

Read mode : Secure
Utilize accurate stream : Yes
Defeat audio cache : Yes
Make use of C2 pointers : No

Read offset correction : 667
Overread into Lead-In and Lead-Out : No
Fill up missing offset samples with silence : Yes
Delete leading and trailing silent blocks : No
Null samples used in CRC calculations : Yes
Used interface : Native Win32 interface for Win NT & 2000

Used output format : User Defined Encoder
Selected bitrate : 128 kBit/s
Quality : High
Add ID3 tag : No
Command line compressor : C:\Program Files (x86)\Exact Audio Copy\Flac\flac.exe
Additional command line options : -V -8 -T Date=\%year\% -T Genre=\%genre\%
\%source\%


TOC of the extracted CD

 Track | Start | Length | Start sector | End sector 
 ---------------------------------------------------------
 1 | 0:00.00 | 6:39.74 | 0 | 29998 
 2 | 6:39.74 | 6:49.31 | 29999 | 60704 
 3 | 13:29.30 | 7:54.41 | 60705 | 96295 
 4 | 21:23.71 | 3:47.64 | 96296 | 113384 
 5 | 25:11.60 | 6:21.05 | 113385 | 141964 
 6 | 31:32.65 | 6:03.01 | 141965 | 169190 
 7 | 37:35.66 | 15:21.73 | 169191 | 238338 


Range status and errors

Selected range

 Filename D:\Rips by Alder\IQ - Resistance (CD1)[GEPCD1064-1].wav

 Peak level 99.3 \%
 Extraction speed 6.3 X
 Range quality 100.0 \%
 Test CRC 77978BB9
 Copy CRC 77978BB9
 Copy OK

No errors occurred

 
AccurateRip summary
 
Track 1 not present in database
Track 2 not present in database
Track 3 not present in database
Track 4 not present in database
Track 5 not present in database
Track 6 not present in database
Track 7 not present in database
 
None of the tracks are present in the AccurateRip database

End of status report

---- CUETools DB Plugin V2.1.6

[CTDB TOCID: hjVVEyeQSAHMY9Ptebzd.rAGDII-] found
Submit result: hjVVEyeQSAHMY9Ptebzd.rAGDII- has been confirmed
Track | CTDB Status
 1 | (89/89) Accurately ripped
 2 | (89/89) Accurately ripped
 3 | (89/89) Accurately ripped
 4 | (89/89) Accurately ripped
 5 | (89/89) Accurately ripped
 6 | (89/89) Accurately ripped
 7 | (89/89) Accurately ripped


==== Log checksum
F9B9B8DD06EA70603D43E5FF18F0BEED209048FC66DE264079859FD4CD367611 ====
Track List CD2:

01. The Great Spirit Way [0:21:44.59]
02. Fire and Security [0:05:25.40]
03. Perfect Space [0:08:33.08]
04. Fallout [0:19:54.68]

 Exact Audio Copy V1.3 from 2. September 2016

EAC extraction logfile from 23. October 2019, 18:13

IQ / Resistance (CD2)[GEPCD1064-2]

Used drive : HL-DT-STBD-RE BH10LS38 Adapter: 1 ID: 0

Read mode : Secure
Utilize accurate stream : Yes
Defeat audio cache : Yes
Make use of C2 pointers : No

Read offset correction : 667
Overread into Lead-In and Lead-Out : No
Fill up missing offset samples with silence : Yes
Delete leading and trailing silent blocks : No
Null samples used in CRC calculations : Yes
Used interface : Native Win32 interface for Win NT & 2000

Used output format : User Defined Encoder
Selected bitrate : 128 kBit/s
Quality : High
Add ID3 tag : No
Command line compressor : C:\Program Files (x86)\Exact Audio Copy\Flac\flac.exe
Additional command line options : -V -8 -T Date=\%year\% -T Genre=\%genre\%
\%source\%


TOC of the extracted CD

 Track | Start | Length | Start sector | End sector 
 ---------------------------------------------------------
 1 | 0:00.00 | 21:44.59 | 0 | 97858 
 2 | 21:44.59 | 5:25.40 | 97859 | 122273 
 3 | 27:10.24 | 8:33.08 | 122274 | 160756 
 4 | 35:43.32 | 19:54.68 | 160757 | 250374 


Range status and errors

Selected range

 Filename D:\Rips by Alder\IQ - Resistance (CD2)[GEPCD1064-2].wav

 Peak level 100.0 \%
 Extraction speed 8.0 X
 Range quality 100.0 \%
 Test CRC C094E117
 Copy CRC C094E117
 Copy OK

No errors occurred

 
AccurateRip summary
 
Track 1 not present in database
Track 2 not present in database
Track 3 not present in database
Track 4 not present in database
 
None of the tracks are present in the AccurateRip database

End of status report

---- CUETools DB Plugin V2.1.6

[CTDB TOCID: LJ6jtVO.sYKPJrIAGMmYXw_Gfx4-] found
Submit result: LJ6jtVO.sYKPJrIAGMmYXw_Gfx4- has been confirmed
Track | CTDB Status
 1 | (92/92) Accurately ripped
 2 | (92/92) Accurately ripped
 3 | (92/92) Accurately ripped
 4 | (91/92) Accurately ripped


==== Log checksum
74CA179832449013C897FB5535C2D497DA539197D1134AE3772E675496039CF5 ====

IQ


Album


Compilation


Live album