Artist
2022 0-9 z y x w v u t s r q p o n m l k j i h g f e d c b a

Muggsy Spanier - The Chronological Classics: 1944 '1996

The Chronological Classics: 1944
ArtistMuggsy Spanier Related artists
Album name The Chronological Classics: 1944
Country
Date 1996
Genre
Play time 64:33
Format / Bitrate Stereo 1420 Kbps / 44.1 kHz
MP3 320 Kbps
Media CD
Size 175 MB(+3\%)
Price Pre-order Free, Stream Free, Download $1.95
Order this album and it will be available for purchase and further download within 12 hours
Pre-order album

Tracks list

Tracklist

1. Angry (Brunies, Cassard, Mecum ) - 2:47
2. Weary Blues (Matthews ) - 2:57
3. Snag It (King Oliver ) - 3:11
4. Alice Blue Gown (McCarthy, Tierney ) - 3:06
5. Sweet Lorraine (Burwell, Parish ) - 3:51
6. Oh, Lady Be Good (Gershwin, Gershwin ) - 3:25
7. Sugar (Alexander, Mitchell, Pinkard ) - 3:02
8. September in the Rain (Dubin, Warren ) - 4:19
9. Sweet Sue, Just You (Harris, Young ) - 4:22
10. Memphis Blues (Handy, Norton ) - 4:14
11. Riverside Blues (Dorsey, Jones ) - 3:03
12. Rosetta (Hines, Woode ) - 3:13
13. Thats A-Plenty (Gilbert, Pollack ) - 4:37
14. Squeeze Me (Waller, Williams ) - 4:35
15. Jazz Me Blues (Delaney ) - 4:18
16. Pee Wee Speaks (Russell, Spanier ) - 5:00
17. Pats Blues (Spanier ) - 4:33

personnel : 

Ernie Caceres - Sax (Baritone)
Dick Cary - Piano
Bob Casey - Bass
Eddie Condon - Guitar
Joe Grauso - Drums
Bob Haggart - Bass
Robert McGarity - Trombone
Miff Mole - Trombone
Boomie Richmond - Sax (Tenor)
Pee Wee Russell - Clarinet
Gene Schroeder - Piano
Muggsy Spanier - Cornet
Jess Stacy - Piano
Sid Weiss - Bass
George Wettling - Drums
Henry White - Guitar 

 EAC LogEAC extraction logfile from 27. October 2007, 14:33 for CD
Muggsy Spanier / 1944

Used drive : HL-DT-STCDRW/DVD GCC4482 Adapter: 1 ID: 0
Read mode : Secure with NO C2, accurate stream, disable cache
Read offset correction : 6
Overread into Lead-In and Lead-Out : No

Used output format : C:\Eac\Codecs\flac.exe (User Defined Encoder)
 320 kBit/s
 Additional command line options : -8 -V -T artist=\%a -T title=\%t -T album=\%g
-T date=\%y -T tracknumber=\%n -T genre=\%m -T comment=EAC Flac 1.1.2 -8 \%s

Other options : 
 Fill up missing offset samples with silence : Yes
 Delete leading and trailing silent blocks : No
 Installed external ASPI interface


Track 1
 Filename C:\Documents and Settings\muggsy\01 - Angry.wav

 Pre-gap length 0:00:02.42

 Peak level 87.1 \%
 Track quality 100.0 \%
 Test CRC 26AF07E0
 Copy CRC 26AF07E0
 Copy OK

Track 2
 Filename C:\Documents and Settings\muggsy\02 - Weary Blues.wav

 Pre-gap length 0:00:01.86

 Peak level 93.0 \%
 Track quality 100.0 \%
 Test CRC FFF6625A
 Copy CRC FFF6625A
 Copy OK

Track 3
 Filename C:\Documents and Settings\muggsy\03 - Snag It.wav

 Pre-gap length 0:00:01.60

 Peak level 86.9 \%
 Track quality 100.0 \%
 Test CRC 80475A8E
 Copy CRC 80475A8E
 Copy OK

Track 4
 Filename C:\Documents and Settings\muggsy\04 - Alice Blue Gown.wav

 Pre-gap length 0:00:02.06

 Peak level 93.5 \%
 Track quality 100.0 \%
 Test CRC 5207EFC4
 Copy CRC 5207EFC4
 Copy OK

Track 5
 Filename C:\Documents and Settings\muggsy\05 - Sweet Lorraine.wav

 Pre-gap length 0:00:02.00

 Peak level 88.9 \%
 Track quality 100.0 \%
 Test CRC 13ADB4A4
 Copy CRC 13ADB4A4
 Copy OK

Track 6
 Filename C:\Documents and Settings\muggsy\06 - Oh, Lady Be Good.wav

 Pre-gap length 0:00:02.33

 Peak level 99.6 \%
 Track quality 100.0 \%
 Test CRC 88EE3B5F
 Copy CRC 88EE3B5F
 Copy OK

Track 7
 Filename C:\Documents and Settings\muggsy\07 - Sugar.wav

 Pre-gap length 0:00:02.76

 Peak level 88.9 \%
 Track quality 99.9 \%
 Test CRC 9ADCF088
 Copy CRC 9ADCF088
 Copy OK

Track 8
 Filename C:\Documents and Settings\muggsy\08 - September In The Rain.wav

 Pre-gap length 0:00:02.33

 Peak level 93.6 \%
 Track quality 100.0 \%
 Test CRC 84A2F1FA
 Copy CRC 84A2F1FA
 Copy OK

Track 9
 Filename C:\Documents and Settings\muggsy\09 - Sweet Sue, Just You.wav

 Pre-gap length 0:00:02.13

 Peak level 85.3 \%
 Track quality 100.0 \%
 Test CRC 9561B3FB
 Copy CRC 9561B3FB
 Copy OK

Track 10
 Filename C:\Documents and Settings\muggsy\10 - Memphis Blues.wav

 Pre-gap length 0:00:02.60

 Peak level 70.2 \%
 Track quality 99.9 \%
 Test CRC B295B538
 Copy CRC B295B538
 Copy OK

Track 11
 Filename C:\Documents and Settings\muggsy\11 - Riverside Blues.wav

 Pre-gap length 0:00:02.20

 Peak level 76.9 \%
 Track quality 100.0 \%
 Test CRC 7DD40557
 Copy CRC 7DD40557
 Copy OK

Track 12
 Filename C:\Documents and Settings\muggsy\12 - Rosetta.wav

 Pre-gap length 0:00:02.13

 Peak level 98.9 \%
 Track quality 99.9 \%
 Test CRC 5EAA3DA7
 Copy CRC 5EAA3DA7
 Copy OK

Track 13
 Filename C:\Documents and Settings\muggsy\13 - Thats A Plenty.wav

 Pre-gap length 0:00:01.93

 Peak level 82.0 \%
 Track quality 100.0 \%
 Test CRC B1656794
 Copy CRC B1656794
 Copy OK

Track 14
 Filename C:\Documents and Settings\muggsy\14 - Squeeze Me.wav

 Pre-gap length 0:00:02.16

 Peak level 77.6 \%
 Track quality 99.9 \%
 Test CRC 86EFE2AA
 Copy CRC 86EFE2AA
 Copy OK

Track 15
 Filename C:\Documents and Settings\muggsy\15 - Jazz Me Blues.wav

 Pre-gap length 0:00:02.30

 Peak level 81.9 \%
 Track quality 100.0 \%
 Test CRC E96BC4C5
 Copy CRC E96BC4C5
 Copy OK

Track 16
 Filename C:\Documents and Settings\muggsy\16 - Pee Wee Speaks.wav

 Pre-gap length 0:00:02.20

 Peak level 68.1 \%
 Track quality 100.0 \%
 Test CRC F4B2368A
 Copy CRC F4B2368A
 Copy OK

Track 17
 Filename C:\Documents and Settings\muggsy\17 - Pats Blues.wav

 Pre-gap length 0:00:02.33

 Peak level 94.5 \%
 Track quality 100.0 \%
 Test CRC 7F773428
 Copy CRC 7F773428
 Copy OK

No errors occured


End of status report