Artist
2022 0-9 z y x w v u t s r q p o n m l k j i h g f e d c b a

Unitopia - One Night In Europe '2011

One Night In Europe
ArtistUnitopia Related artists
Album name One Night In Europe
Country
Date 2011
Genre
Play time 108:35
Format / Bitrate Stereo 1420 Kbps / 44.1 kHz
MP3 320 Kbps
Media CD
Size 807 MB(+3\%)
Price Pre-order Free, Stream Free, Download $6.95
Order this album and it will be available for purchase and further download within 12 hours
Pre-order album

Tracks list

Tracklist

CD1: 

1. Suffocation (1:54)
2. Artificial World (5:29)
3. Nothing Lasts Forever (5:15)
4. Not Human Anymore (5:09)
5. Tesla (15:34)
6. Gone In The Blink Of An Eye (5:37)
7. The Great Reward (5:33)
8. Angeliqua (9:37)
9. More Than A Dream (7:36)

CD2: 

1. Justify (13:40)
2. The Garden (24:58)
3. One Day (3:11)
4. Inside The Power (5:02)

personnel : 

Mark Trueack - vocals
Sean Timms - keyboards, backing vocals
Matt Williams - guitar, backing vocals
David Hopgood - drums
Craig Kelly - bass, backing vocals
Tim Irrgang - percussion

guest musician:
Ian Ritchie - sax, flute, tin whistle, backing vocals

 EAC LogExact Audio Copy V1.0 beta 2 from 29. April 2011

EAC extraction logfile from 12. December 2011, 17:39

Unitopia / One Night In Europe (Disc 1)

Used drive : HL-DT-STLENOVO BURNER Adapter: 4 ID: 0

Read mode : Secure
Utilize accurate stream : Yes
Defeat audio cache : Yes
Make use of C2 pointers : No

Read offset correction : 102
Overread into Lead-In and Lead-Out : No
Fill up missing offset samples with silence : Yes
Delete leading and trailing silent blocks : No
Null samples used in CRC calculations : Yes
Used interface : Native Win32 interface for Win NT & 2000

Used output format : User Defined Encoder
Selected bitrate : 128 kBit/s
Quality : High
Add ID3 tag : No
Command line compressor : D:\Exact Audio Copy\Flac\flac.exe
Additional command line options : -8 -V


TOC of the extracted CD

 Track | Start | Length | Start sector | End sector 
 ---------------------------------------------------------
 1 | 0:00.00 | 1:54.21 | 0 | 8570 
 2 | 1:54.21 | 5:29.16 | 8571 | 33261 
 3 | 7:23.37 | 5:15.52 | 33262 | 56938 
 4 | 12:39.14 | 5:09.57 | 56939 | 80170 
 5 | 17:48.71 | 15:34.11 | 80171 | 150231 
 6 | 33:23.07 | 5:37.64 | 150232 | 175570 
 7 | 39:00.71 | 5:33.08 | 175571 | 200553 
 8 | 44:34.04 | 9:37.20 | 200554 | 243848 
 9 | 54:11.24 | 7:36.56 | 243849 | 278104 


Range status and errors

Selected range

 Filename D:\Unitopia - One Night In Europe (Disc 1).wav

 Peak level 100.0 \%
 Extraction speed 2.1 X
 Range quality 99.9 \%
 Test CRC E5861665
 Copy CRC E5861665
 Copy OK

No errors occurred

 
AccurateRip summary
 
Track 1 not present in database
Track 2 not present in database
Track 3 not present in database
Track 4 not present in database
Track 5 not present in database
Track 6 not present in database
Track 7 not present in database
Track 8 not present in database
Track 9 not present in database
 
None of the tracks are present in the AccurateRip database

End of status report
-------------------------------------------------------------------------------------

Exact Audio Copy V1.0 beta 2 from 29. April 2011

EAC extraction logfile from 13. December 2011, 8:55

Unitopia / One Night In Europe (Disc 2)

Used drive : HL-DT-STLENOVO BURNER Adapter: 4 ID: 0

Read mode : Secure
Utilize accurate stream : Yes
Defeat audio cache : Yes
Make use of C2 pointers : No

Read offset correction : 102
Overread into Lead-In and Lead-Out : No
Fill up missing offset samples with silence : Yes
Delete leading and trailing silent blocks : No
Null samples used in CRC calculations : Yes
Used interface : Native Win32 interface for Win NT & 2000

Used output format : User Defined Encoder
Selected bitrate : 128 kBit/s
Quality : High
Add ID3 tag : No
Command line compressor : D:\Exact Audio Copy\Flac\flac.exe
Additional command line options : -8 -V


TOC of the extracted CD

 Track | Start | Length | Start sector | End sector 
 ---------------------------------------------------------
 1 | 0:00.00 | 13:40.17 | 0 | 61516 
 2 | 13:40.17 | 24:58.47 | 61517 | 173913 
 3 | 38:38.64 | 3:11.19 | 173914 | 188257 
 4 | 41:50.08 | 5:02.47 | 188258 | 210954 


Range status and errors

Selected range

 Filename D:\Unitopia - One Night In Europe (Disc 2).wav

 Peak level 100.0 \%
 Extraction speed 1.9 X
 Range quality 99.9 \%
 Test CRC 683AE6A3
 Copy CRC 683AE6A3
 Copy OK

No errors occurred

 
AccurateRip summary
 
Track 1 not present in database
Track 2 not present in database
Track 3 not present in database
Track 4 not present in database
 
None of the tracks are present in the AccurateRip database

End of status report

Unitopia


Album