Artist
2022 0-9 z y x w v u t s r q p o n m l k j i h g f e d c b a

New Orleans Rhythm Kings - The Chronological Classics: 1925-1935 '2000

The Chronological Classics: 1925-1935
ArtistNew Orleans Rhythm Kings Related artists
Album name The Chronological Classics: 1925-1935
Country
Date 2000
Genre
Play time 72:15
Format / Bitrate Stereo 1420 Kbps / 44.1 kHz
MP3 320 Kbps
Media CD
Size 158 MB(+3\%)
Price Pre-order Free, Stream Free, Download $1.95
Order this album and it will be available for purchase and further download within 12 hours
Pre-order album

Tracks list

Tracklist

01. Baby (3:03)
02. I Never Knew What a Girl Could Do (3:01)
03. Shes Crying for Me, Blues (2:51)
04. Golden Leaf Strut (2:50)
05. Shes Crying for Me (2:47)
06. Everybody Loves Somebody Blues (2:55)
07. Shine (3:05)
08. Panama (2:49)
09. Tin Roof Blues (2:59)
10. San Antonio Shout (2:23)
11. Tin Roof Blues (2:30)
12. Panama (3:04)
13. Jazz It Blues (2:30)
14. Bluin the Blues (2:58)
15. Ostrich Walk (3:01)
16. Original Dixieland One-Step (2:51)
17. Sensation (2:49)
18. Nagasaki (3:14)
19. Reincarnation (2:50)
20. Maple Leaf Rag (2:59)
21. The Land of Dreams (2:59)
22. Baby Brown (2:51)
23. No Lovers Allowed (3:01)
24. Dust Off That Old Piano (3:01)
25. Since We Fell Out of Love (2:54) 

The 1922-1923 recordings of the New Orleans Rhythm Kings are essential listening
for anyone trying to piece together the evolution of New Orleans/Chicago-style
jazz (see Classics 1129). To be permitted chronological access to everything
that subsequently appeared under the banner of the NORK is a ticket to Elysium
for all lovers of classic jazz. The first six selections, recorded in New
Orleans near the beginning of 1925, reveal a much different band than the
ensembles of 1923. Obviously, Jelly Roll Morton isnt directly involved anymore,
even if Golden Leaf Blues sounds a lot like Milenberg Joys. Paul Mares and Leon
Roppolo retain their position at the center of things, but trombonist George
Brunies has been replaced by the dashing Santo Pecora. Each little three-minute
performance is solid and warm. Now the action moves up to New York City. A small
cluster of originally unissued test pressings from June of 1934 includes a
vaudeville version of Shine by a quartet calling itself the Four Bales of
Cotton, with scatting, trumpeting, and friendly patter by Wingy Manone. Although
Shine, with its mildly Jim Crow lyrics, always does better as an instrumental,
this theatrical singalong approach is somehow fascinating. The same session
yielded two hot instrumentals by a reassembled Rhythm Kings with a front line of
Manone, either Brunies or Pecora, clarinetist Sidney Arodin, and the tenor
saxophone of Eddie Miller. Why these sides were rejected in 1934 is anybodys
guess. By September of that year, Decca was taking them more seriously. Brunies
and Manone led a six-piece mob through eight outstanding stomps. Arodins
marvelous San Antonio Shout is succeeded by one traditional jazz anthem after
the next. Their handling of Jazz Me Blues is particularly tasty. The session of
September 26 was shaped by a deliberate emphasis on material harking back to the
Original Dixieland Jazz Band. Back in Chicago on January 26, 1935, Paul Mares
led his own version of a reconstituted Rhythm Kings band, referencing the
earliest NORK sessions by reviving the Friars Society Orchestra name. The
appropriately titled Reincarnation is elegantly, majestically blue. Land of
Dreams, Nagasaki, and Maple Leaf swing hard. Pecora is back, along with the
mighty Omer Simeon and a tough alto sax player by the name of Boyce Brown. The
last band to record under this name in the 1930s had a strong front line in
Muggsy Spanier, George Brunies, and Eddie Miller. Two of the numbers are hot
Fats Waller spinoffs, while No Lovers Allowed is OK and Since We Fell Out of
Love has notably stupid lyrics, made insufferable by Red McKenzie, who insists
on warbling away at each song without mercy. Either you love him or you want to
cram a comb down his throat. Whenever the singer runs out of lyrics, Muggsys
cornet shines like the harvest moon
 EAC LogExact Audio Copy V1.0 beta 3 from 29. August 2011

EAC extraction logfile from 11. February 2013, 13:51

New Orleans Rhythm Kings / The Chronological New Orleans Rhythm Kings: 1925-1935

Used drive : HL-DT-STDVDRAM GT20N Adapter: 2 ID: 0

Read mode : Secure
Utilize accurate stream : Yes
Defeat audio cache : Yes
Make use of C2 pointers : No

Read offset correction : 667
Overread into Lead-In and Lead-Out : No
Fill up missing offset samples with silence : Yes
Delete leading and trailing silent blocks : No
Null samples used in CRC calculations : Yes
Used interface : Native Win32 interface for Win NT & 2000
Gap handling : Appended to previous track

Used output format : User Defined Encoder
Selected bitrate : 1024 kBit/s
Quality : High
Add ID3 tag : No
Command line compressor : C:\Program Files (x86)\Exact Audio Copy\Flac\flac.exe
Additional command line options : -8 -V -T ARTIST=\%artist\% -T TITLE=\%title\%
-T ALBUM=\%albumtitle\% -T DATE=\%year\% -T TRACKNUMBER=\%tracknr\% -T
GENRE=\%genre\% -T PERFORMER=\%albuminterpret\% -T COMPOSER=\%composer\%
\%haslyrics\%--tag-from-file=LYRICS=\%lyricsfile\%\%haslyrics\% -T
ALBUMARTIST=\%albumartist\% -T DISCNUMBER=\%cdnumber\% -T
TOTALDISCS=\%totalcds\% -T TOTALTRACKS=\%numtracks\% -T COMMENT=\%comment\%
\%source\% -o \%dest\%


TOC of the extracted CD

 Track | Start | Length | Start sector | End sector 
 ---------------------------------------------------------
 1 | 0:00.00 | 3:02.47 | 0 | 13696 
 2 | 3:02.47 | 3:01.05 | 13697 | 27276 
 3 | 6:03.52 | 2:50.38 | 27277 | 40064 
 4 | 8:54.15 | 2:50.30 | 40065 | 52844 
 5 | 11:44.45 | 2:47.12 | 52845 | 65381 
 6 | 14:31.57 | 2:54.53 | 65382 | 78484 
 7 | 17:26.35 | 3:04.40 | 78485 | 92324 
 8 | 20:31.00 | 2:48.54 | 92325 | 104978 
 9 | 23:19.54 | 2:59.26 | 104979 | 118429 
 10 | 26:19.05 | 2:22.42 | 118430 | 129121 
 11 | 28:41.47 | 2:29.63 | 129122 | 140359 
 12 | 31:11.35 | 3:03.57 | 140360 | 154141 
 13 | 34:15.17 | 2:29.65 | 154142 | 165381 
 14 | 36:45.07 | 2:57.58 | 165382 | 178714 
 15 | 39:42.65 | 3:01.32 | 178715 | 192321 
 16 | 42:44.22 | 2:51.05 | 192322 | 205151 
 17 | 45:35.27 | 2:48.55 | 205152 | 217806 
 18 | 48:24.07 | 3:13.65 | 217807 | 232346 
 19 | 51:37.72 | 2:50.25 | 232347 | 245121 
 20 | 54:28.22 | 2:59.28 | 245122 | 258574 
 21 | 57:27.50 | 2:59.17 | 258575 | 272016 
 22 | 60:26.67 | 2:50.65 | 272017 | 284831 
 23 | 63:17.57 | 3:01.25 | 284832 | 298431 
 24 | 66:19.07 | 3:01.18 | 298432 | 312024 
 25 | 69:20.25 | 2:54.35 | 312025 | 325109 


Track 1

 Filename E:\New Orleans Rhythm Kings - 1925-1935 (2000) [FLAC] {Classics
1150}\01 - New Orleans Rhythm Kings - Baby.wav

 Pre-gap length 0:00:02.00

 Peak level 79.1 \%
 Extraction speed 2.3 X
 Track quality 100.0 \%
 Test CRC 9B073491
 Copy CRC 9B073491
 Track not present in AccurateRip database
 Copy OK

Track 2

 Filename E:\New Orleans Rhythm Kings - 1925-1935 (2000) [FLAC] {Classics
1150}\02 - New Orleans Rhythm Kings - I Never Knew What A Girl Could Do.wav

 Pre-gap length 0:00:02.56

 Peak level 94.4 \%
 Extraction speed 2.5 X
 Track quality 100.0 \%
 Test CRC 86AC7472
 Copy CRC 86AC7472
  Track not present in AccurateRip database
 Copy OK

Track 3

 Filename E:\New Orleans Rhythm Kings - 1925-1935 (2000) [FLAC] {Classics
1150}\03 - New Orleans Rhythm Kings - Shes Crying For Me, Blues.wav

 Pre-gap length 0:00:02.56

 Peak level 94.4 \%
 Extraction speed 2.6 X
 Track quality 100.0 \%
 Test CRC F934DEAA
 Copy CRC F934DEAA
 Track not present in AccurateRip database
 Copy OK

Track 4

 Filename E:\New Orleans Rhythm Kings - 1925-1935 (2000) [FLAC] {Classics
1150}\04 - New Orleans Rhythm Kings - Golden Leaf Strut.wav

 Pre-gap length 0:00:02.57

 Peak level 94.4 \%
 Extraction speed 2.8 X
 Track quality 100.0 \%
 Test CRC 2C42D210
 Copy CRC 2C42D210
 Track not present in AccurateRip database
 Copy OK

Track 5

 Filename E:\New Orleans Rhythm Kings - 1925-1935 (2000) [FLAC] {Classics
1150}\05 - New Orleans Rhythm Kings - Shes Crying For Me.wav

 Pre-gap length 0:00:02.57

 Peak level 94.4 \%
 Extraction speed 2.8 X
 Track quality 100.0 \%
 Test CRC 0DED9BDB
 Copy CRC 0DED9BDB
 Track not present in AccurateRip database
 Copy OK

Track 6

 Filename E:\New Orleans Rhythm Kings - 1925-1935 (2000) [FLAC] {Classics
1150}\06 - New Orleans Rhythm Kings - Everybody Loves Somebody Blues.wav

 Pre-gap length 0:00:02.56

 Peak level 94.4 \%
 Extraction speed 3.0 X
 Track quality 100.0 \%
 Test CRC 28E5DEFD
 Copy CRC 28E5DEFD
 Track not present in AccurateRip database
 Copy OK

Track 7

 Filename E:\New Orleans Rhythm Kings - 1925-1935 (2000) [FLAC] {Classics
1150}\07 - The Four Bales Of Cotton - Shine.wav

 Pre-gap length 0:00:02.57

 Peak level 94.4 \%
 Extraction speed 3.1 X
 Track quality 100.0 \%
 Test CRC 4CA278E3
 Copy CRC 4CA278E3
 Track not present in AccurateRip database
 Copy OK

Track 8

 Filename E:\New Orleans Rhythm Kings - 1925-1935 (2000) [FLAC] {Classics
1150}\08 - New Orleans Rhythm Kings - Panama.wav

 Pre-gap length 0:00:02.57

 Peak level 94.4 \%
 Extraction speed 3.3 X
 Track quality 100.0 \%
 Test CRC 2A3BF550
 Copy CRC 2A3BF550
 Track not present in AccurateRip database
 Copy OK

Track 9

 Filename E:\New Orleans Rhythm Kings - 1925-1935 (2000) [FLAC] {Classics
1150}\09 - New Orleans Rhythm Kings - Tin Roof Blues.wav

 Pre-gap length 0:00:02.56

 Peak level 94.4 \%
 Extraction speed 3.5 X
 Track quality 100.0 \%
 Test CRC 3E48A742
 Copy CRC 3E48A742
 Track not present in AccurateRip database
 Copy OK

Track 10

 Filename E:\New Orleans Rhythm Kings - 1925-1935 (2000) [FLAC] {Classics
1150}\10 - New Orleans Rhythm Kings - San Antonio Shout.wav

 Pre-gap length 0:00:02.57

 Peak level 94.4 \%
 Extraction speed 3.4 X
 Track quality 100.0 \%
 Test CRC AAA824A7
 Copy CRC AAA824A7
 Track not present in AccurateRip database
 Copy OK

Track 11

 Filename E:\New Orleans Rhythm Kings - 1925-1935 (2000) [FLAC] {Classics
1150}\11 - New Orleans Rhythm Kings - Tin Roof Blues.wav

 Pre-gap length 0:00:02.56

 Peak level 94.4 \%
 Extraction speed 3.5 X
 Track quality 100.0 \%
 Test CRC 842542E3
 Copy CRC 842542E3
 Track not present in AccurateRip database
 Copy OK

Track 12

 Filename E:\New Orleans Rhythm Kings - 1925-1935 (2000) [FLAC] {Classics
1150}\12 - New Orleans Rhythm Kings - Panama.wav

 Pre-gap length 0:00:02.57

 Peak level 88.1 \%
 Extraction speed 3.8 X
 Track quality 100.0 \%
 Test CRC 9508375B
 Copy CRC 9508375B
 Track not present in AccurateRip database
 Copy OK

Track 13

 Filename E:\New Orleans Rhythm Kings - 1925-1935 (2000) [FLAC] {Classics
1150}\13 - New Orleans Rhythm Kings - Jazz It Blues.wav

 Pre-gap length 0:00:02.56

 Peak level 90.1 \%
 Extraction speed 3.7 X
 Track quality 100.0 \%
 Test CRC A34EFCBA
 Copy CRC A34EFCBA
 Track not present in AccurateRip database
 Copy OK

Track 14

 Filename E:\New Orleans Rhythm Kings - 1925-1935 (2000) [FLAC] {Classics
1150}\14 - New Orleans Rhythm Kings - Bluin The Blues.wav

 Pre-gap length 0:00:02.56

 Peak level 94.4 \%
 Extraction speed 3.9 X
 Track quality 100.0 \%
 Test CRC 3856DD70
 Copy CRC 3856DD70
 Track not present in AccurateRip database
 Copy OK

Track 15

 Filename E:\New Orleans Rhythm Kings - 1925-1935 (2000) [FLAC] {Classics
1150}\15 - New Orleans Rhythm Kings - Ostrich Walk.wav

 Pre-gap length 0:00:02.57

 Peak level 94.4 \%
 Extraction speed 4.0 X
 Track quality 100.0 \%
 Test CRC 6A5A89EC
 Copy CRC 6A5A89EC
 Track not present in AccurateRip database
 Copy OK

Track 16

 Filename E:\New Orleans Rhythm Kings - 1925-1935 (2000) [FLAC] {Classics
1150}\16 - New Orleans Rhythm Kings - Original Dixieland One-Step.wav

 Pre-gap length 0:00:02.56

 Peak level 94.4 \%
 Extraction speed 4.1 X
 Track quality 100.0 \%
 Test CRC E8B22700
 Copy CRC E8B22700
 Track not present in AccurateRip database
 Copy OK

Track 17

 Filename E:\New Orleans Rhythm Kings - 1925-1935 (2000) [FLAC] {Classics
1150}\17 - New Orleans Rhythm Kings - Sensation.wav

 Pre-gap length 0:00:02.56

 Peak level 94.4 \%
 Extraction speed 4.2 X
 Track quality 100.0 \%
 Test CRC F27FCB53
 Copy CRC F27FCB53
 Track not present in AccurateRip database
 Copy OK

Track 18

 Filename E:\New Orleans Rhythm Kings - 1925-1935 (2000) [FLAC] {Classics
1150}\18 - Paul Mares And His Friars Society Orchestra - Nagasaki.wav

 Pre-gap length 0:00:02.56

 Peak level 82.2 \%
 Extraction speed 2.9 X
 Track quality 99.9 \%
 Test CRC 3F83BA6D
 Copy CRC 3F83BA6D
 Track not present in AccurateRip database
 Copy OK

Track 19

 Filename E:\New Orleans Rhythm Kings - 1925-1935 (2000) [FLAC] {Classics
1150}\19 - Paul Mares And His Friars Society Orchestra - Reincarnation.wav

 Pre-gap length 0:00:02.56

 Peak level 77.5 \%
 Extraction speed 1.9 X
 Track quality 99.9 \%
 Test CRC 3C19DF54
 Copy CRC 3C19DF54
 Track not present in AccurateRip database
 Copy OK

Track 20

 Filename E:\New Orleans Rhythm Kings - 1925-1935 (2000) [FLAC] {Classics
1150}\20 - Paul Mares And His Friars Society Orchestra - Maple Leaf Rag.wav

 Pre-gap length 0:00:02.56

 Peak level 92.2 \%
 Extraction speed 2.3 X
 Track quality 100.0 \%
 Test CRC 6A6736F4
 Copy CRC 6A6736F4
 Track not present in AccurateRip database
 Copy OK

Track 21

 Filename E:\New Orleans Rhythm Kings - 1925-1935 (2000) [FLAC] {Classics
1150}\21 - Paul Mares And His Friars Society Orchestra - The Land Of Dreams.wav

 Pre-gap length 0:00:02.57

 Peak level 92.2 \%
 Extraction speed 2.3 X
 Track quality 100.0 \%
 Test CRC 033C4D41
 Copy CRC 033C4D41
 Track not present in AccurateRip database
 Copy OK

Track 22

 Filename E:\New Orleans Rhythm Kings - 1925-1935 (2000) [FLAC] {Classics
1150}\22 - New Orleans Rhythm Kings - Baby Brown.wav

 Pre-gap length 0:00:02.56

 Peak level 94.4 \%
 Extraction speed 2.3 X
 Track quality 100.0 \%
 Test CRC AE97F01F
 Copy CRC AE97F01F
 Track not present in AccurateRip database
 Copy OK

Track 23

 Filename E:\New Orleans Rhythm Kings - 1925-1935 (2000) [FLAC] {Classics
1150}\23 - New Orleans Rhythm Kings - No Lovers Allowed.wav

 Pre-gap length 0:00:02.56

 Peak level 94.4 \%
 Extraction speed 2.4 X
 Track quality 100.0 \%
 Test CRC 167B0D77
 Copy CRC 167B0D77
 Track not present in AccurateRip database
 Copy OK

Track 24

 Filename E:\New Orleans Rhythm Kings - 1925-1935 (2000) [FLAC] {Classics
1150}\24 - New Orleans Rhythm Kings - Dust Off That Old Piano.wav

 Pre-gap length 0:00:02.56

 Peak level 94.4 \%
 Extraction speed 2.1 X
 Track quality 99.9 \%
 Test CRC 289CAE56
 Copy CRC 289CAE56
 Track not present in AccurateRip database
 Copy OK

Track 25

 Filename E:\New Orleans Rhythm Kings - 1925-1935 (2000) [FLAC] {Classics
1150}\25 - New Orleans Rhythm Kings - Since We Fell Out Of Love.wav

 Pre-gap length 0:00:02.57

 Peak level 94.4 \%
 Extraction speed 2.5 X
 Track quality 100.0 \%
 Test CRC C5B3BD7E
 Copy CRC C5B3BD7E
 Track not present in AccurateRip database
 Copy OK


None of the tracks are present in the AccurateRip database

No errors occurred

End of status report

---- CUETools DB Plugin V2.1.3

[CTDB TOCID: ONs1Nn9NCcSV1vvAmOEi4xrdARo-] disk not present in database, Submit
result: ONs1Nn9NCcSV1vvAmOEi4xrdARo- has been uploaded


==== Log checksum
AA908C0D74A50C74609F8221DAAB44AB071F15EC75CE6689B82E335B79588782 ====

New Orleans Rhythm Kings


Album