Artist
2022 0-9 z y x w v u t s r q p o n m l k j i h g f e d c b a

New Orleans Rhythm Kings - The Chronological Classics: 1922-1923 '2000

The Chronological Classics: 1922-1923
ArtistNew Orleans Rhythm Kings Related artists
Album name The Chronological Classics: 1922-1923
Country
Date 2000
Genre
Play time 66:05
Format / Bitrate Stereo 1420 Kbps / 44.1 kHz
MP3 320 Kbps
Media CD
Size 176 MB(+3\%)
Price Pre-order Free, Stream Free, Download $1.95
Order this album and it will be available for purchase and further download within 12 hours
Pre-order album

Tracks list

Tracklist

01. Eccentric (2:53)
02. Farewell Blues (2:40)
03. Discontented Blues (2:42)
04. Bugle Call Blues (2:21)
05. Panama (2:37)
06. Tiger Rag (2:28)
07. Livery Stable Blues (2:28)
08. Oriental (2:37)
09. Sweet Lovin Man (2:39)
10. Thats A Plenty (2:37)
11. Shimmeshawabble (3:02)
12. Weary Blues (2:44)
13. Da Da Strain (2:30)
14. Wolverine Blues (3:05)
15. Maple Leaf Rag (2:33)
16. Tin Roof Blues (3:04)
17. Sobbin Blues (2:50)
18. Marguerite (3:12)
19. Angry (2:56)
20. Clarinet Marmalade (2:36)
21. Mr. Jelly Lord (3:12)
22. London Blues (2:50)
23. Milenberg Joys (2:52)
24. Mad (2:37)

This is some of the best early jazz that youll ever hear. The overall
traditional jazz landscape would be incomplete without these hot little records.
Descending upon the Gennett recording studios in August of 1922, the New Orleans
Rhythm Kings called themselves the Friars Society Orchestra in honor of Mike
Fritzels Friars Inn, a Chicago speakeasy that gave them lots of gig work. Husk
OHare was designated as their director. Its worth noting that a gathering of
hares is traditionally known as a husk. If thats not the origin of his name, it
is a staggering coincidence. A husk o hares, get it? Anyway, these rusty old
stomps and shimmies are a joy to behold. Farewell Blues is as good as it gets.
This number and Tin Roof Blues really put the Rhythm Kings on the map.
Discontented Blues turned out to be a nice vehicle for Jack Pettis, who
generates one of the very first tenor sax solos to make it onto phonograph
records. The saxophone really adds a whole dimension to this ensemble. Panama is
pretty darned scratchy at the outset; they probably should have found a
different copy of the original platter. Up until this track these old Gennett
sides sounded pretty good. Tiger Rag and Livery Stable Blues are similarly
disrupted by more surface noise than was heard on vinyl LP issues of this same
material. (How puzzling!) With Oriental, we return to decent remastering, which
is not really so much to ask. Just when you think the trouble has passed, Thats
A-Plenty sounds a bit scrofulous. Fortunately, the sound quality improves after
this, so the listener is no longer distracted by excessive scratchiness.
Shim-Me-Sha-Wabble comes across beautifully, Mel Stitzels piano quite audible
through the horns. As any collector of old records can tell you, when theres a
lot of surface noise, the piano is among the first instruments to get lost in
the scuffle. Artie Matthews Weary Blues rocks nicely, setting an example for
later generations to emulate. Da Da Strain is a marvel of studied polyphony, a
jacked-up conversation between staunch cornet, reefer-head clarinet, and dog
trombone. Irresistible! Drop everything and dance around the room to this. Jelly
Roll Morton wrote Wolverine Blues after spotting what he considered an unusual
zoological word on a barbershop in the wilds of Michigan. The Rhythm Kings
version of this song is delightfully solid and relaxed, kicking lightly and
wagging its tail. Maple Leaf Rag sends perky trills right on up through the
scratchy record surface. Jelly Roll Morton actually sat in with this band on
July 17 and 18, 1923, breaking the color bar and sounding marvelous behind the
horns. Mr. Jelly Lord wins awards for best slow drag, while London Blues and
Milenberg Joys are fundamentally essential recordings that need to be studied
carefully and lovingly, for this is one of the taproots of jazz, this bundle of
old-fashioned/newfangled dance tunes on scratchy old records. Even if a few of
the tracks could have been cleaned up more diligently, its probably good to hear
authentic 78-rpm surface noise so nobody forgets what it sounded like. 

 EAC LogExact Audio Copy V1.0 beta 3 from 29. August 2011

EAC extraction logfile from 7. June 2014, 11:38

New Orleans Rhythm Kings / New Orleans Rhythm Kings 1922-1923

Used drive : HL-DT-STDVDRAM GT20N Adapter: 2 ID: 0

Read mode : Secure
Utilize accurate stream : Yes
Defeat audio cache : Yes
Make use of C2 pointers : No

Read offset correction : 667
Overread into Lead-In and Lead-Out : No
Fill up missing offset samples with silence : Yes
Delete leading and trailing silent blocks : No
Null samples used in CRC calculations : Yes
Used interface : Native Win32 interface for Win NT & 2000
Gap handling : Appended to previous track

Used output format : User Defined Encoder
Selected bitrate : 1024 kBit/s
Quality : High
Add ID3 tag : No
Command line compressor : C:\Program Files (x86)\Exact Audio Copy\Flac\flac.exe
Additional command line options : -8 -V -T ARTIST=\%artist\% -T TITLE=\%title\%
-T ALBUM=\%albumtitle\% -T DATE=\%year\% -T TRACKNUMBER=\%tracknr\% -T
GENRE=\%genre\% -T PERFORMER=\%albuminterpret\% -T COMPOSER=\%composer\%
\%haslyrics\%--tag-from-file=LYRICS=\%lyricsfile\%\%haslyrics\% -T
ALBUMARTIST=\%albumartist\% -T DISCNUMBER=\%cdnumber\% -T
TOTALDISCS=\%totalcds\% -T TOTALTRACKS=\%numtracks\% -T COMMENT=\%comment\%
\%source\% -o \%dest\%


TOC of the extracted CD

 Track | Start | Length | Start sector | End sector 
 ---------------------------------------------------------
 1 | 0:00.00 | 2:53.27 | 0 | 13001 
 2 | 2:53.27 | 2:39.47 | 13002 | 24973 
 3 | 5:32.74 | 2:42.16 | 24974 | 37139 
 4 | 8:15.15 | 2:20.46 | 37140 | 47685 
 5 | 10:35.61 | 2:37.35 | 47686 | 59495 
 6 | 13:13.21 | 2:28.13 | 59496 | 70608 
 7 | 15:41.34 | 2:28.03 | 70609 | 81711 
 8 | 18:09.37 | 2:36.47 | 81712 | 93458 
 9 | 20:46.09 | 2:38.45 | 93459 | 105353 
 10 | 23:24.54 | 2:37.32 | 105354 | 117160 
 11 | 26:02.11 | 3:01.49 | 117161 | 130784 
 12 | 29:03.60 | 2:44.11 | 130785 | 143095 
 13 | 31:47.71 | 2:30.19 | 143096 | 154364 
 14 | 34:18.15 | 3:05.07 | 154365 | 168246 
 15 | 37:23.22 | 2:32.67 | 168247 | 179713 
 16 | 39:56.14 | 3:04.36 | 179714 | 193549 
 17 | 43:00.50 | 2:50.34 | 193550 | 206333 
 18 | 45:51.09 | 3:11.57 | 206334 | 220715 
 19 | 49:02.66 | 2:55.67 | 220716 | 233907 
 20 | 51:58.58 | 2:35.38 | 233908 | 245570 
 21 | 54:34.21 | 3:12.13 | 245571 | 259983 
 22 | 57:46.34 | 2:49.41 | 259984 | 272699 
 23 | 60:36.00 | 2:51.74 | 272700 | 285598 
 24 | 63:27.74 | 2:36.45 | 285599 | 297343 


Track 1

 Filename E:\01 - Friars Society Orchestra - Eccentric.wav

 Pre-gap length 0:00:02.00

 Peak level 93.3 \%
 Extraction speed 2.3 X
 Track quality 100.0 \%
 Test CRC E83F8091
 Copy CRC E83F8091
 Accurately ripped (confidence 3) [34B7E458] (AR v2)
 Copy OK

Track 2

 Filename E:\02 - Friars Society Orchestra - Farewell Blues.wav

 Pre-gap length 0:00:03.00

 Peak level 93.3 \%
 Extraction speed 2.4 X
 Track quality 100.0 \%
 Test CRC EE0F4115
 Copy CRC EE0F4115
 Accurately ripped (confidence 3) [C27B0A82] (AR v2)
 Copy OK

Track 3

 Filename E:\03 - Friars Society Orchestra - Discontented Blues.wav

 Pre-gap length 0:00:03.00

 Peak level 93.3 \%
 Extraction speed 2.5 X
 Track quality 100.0 \%
 Test CRC E5F450CD
 Copy CRC E5F450CD
 Accurately ripped (confidence 3) [7FBBE3DE] (AR v2)
 Copy OK

Track 4

 Filename E:\04 - Friars Society Orchestra - Bugle Call Blues.wav

 Pre-gap length 0:00:03.00

 Peak level 93.3 \%
 Extraction speed 2.6 X
 Track quality 100.0 \%
 Test CRC 2A18C7B2
 Copy CRC 2A18C7B2
 Accurately ripped (confidence 3) [0918BA5A] (AR v2)
 Copy OK

Track 5

 Filename E:\05 - Friars Society Orchestra - Panama.wav

 Pre-gap length 0:00:03.00

 Peak level 93.3 \%
 Extraction speed 2.8 X
 Track quality 100.0 \%
 Test CRC 74FDCEF1
 Copy CRC 74FDCEF1
 Accurately ripped (confidence 3) [17E5166B] (AR v2)
 Copy OK

Track 6

 Filename E:\06 - Friars Society Orchestra - Tiger Rag.wav

 Pre-gap length 0:00:03.00

 Peak level 93.3 \%
 Extraction speed 2.9 X
 Track quality 100.0 \%
 Test CRC B7E53C94
 Copy CRC B7E53C94
 Accurately ripped (confidence 3) [A548CA50] (AR v2)
 Copy OK

Track 7

 Filename E:\07 - Friars Society Orchestra - Livery Stable Blues.wav

 Pre-gap length 0:00:03.00

 Peak level 93.3 \%
 Extraction speed 1.8 X
 Track quality 99.9 \%
 Test CRC BACA60CB
 Copy CRC BACA60CB
 Accurately ripped (confidence 3) [0073292F] (AR v2)
 Copy OK

Track 8

 Filename E:\08 - Friars Society Orchestra - Oriental.wav

 Pre-gap length 0:00:03.00

 Peak level 93.3 \%
 Extraction speed 1.5 X
 Track quality 100.0 \%
 Test CRC 360C3E9A
 Copy CRC 360C3E9A
 Accurately ripped (confidence 3) [DB8F2679] (AR v2)
 Copy OK

Track 9

 Filename E:\09 - New Orleans Rhythm Kings - Sweet Lovin Man.wav

 Pre-gap length 0:00:03.00

 Peak level 93.3 \%
 Extraction speed 1.6 X
 Track quality 100.0 \%
 Test CRC 04A8C8CB
 Copy CRC 04A8C8CB
 Accurately ripped (confidence 3) [B440534C] (AR v2)
 Copy OK

Track 10

 Filename E:\10 - New Orleans Rhythm Kings - Thats A Plenty.wav

 Pre-gap length 0:00:03.00

 Peak level 93.3 \%
 Extraction speed 1.7 X
 Track quality 100.0 \%
 Test CRC 8279B881
 Copy CRC 8279B881
 Accurately ripped (confidence 3) [749A79F3] (AR v2)
 Copy OK

Track 11

 Filename E:\11 - New Orleans Rhythm Kings - Shimmeshawabble.wav

 Pre-gap length 0:00:03.00

 Peak level 93.3 \%
 Extraction speed 1.8 X
 Track quality 100.0 \%
 Test CRC 21619154
 Copy CRC 21619154
 Accurately ripped (confidence 3) [43DC1B08] (AR v2)
 Copy OK

Track 12

 Filename E:\12 - New Orleans Rhythm Kings - Weary Blues.wav

 Pre-gap length 0:00:03.00

 Peak level 93.3 \%
 Extraction speed 1.8 X
 Track quality 100.0 \%
 Test CRC BE23565C
 Copy CRC BE23565C
 Accurately ripped (confidence 3) [8A124D50] (AR v2)
 Copy OK

Track 13

 Filename E:\13 - New Orleans Rhythm Kings - Da Da Strain.wav

 Pre-gap length 0:00:03.00

 Peak level 93.3 \%
 Extraction speed 1.8 X
 Track quality 100.0 \%
 Test CRC D88AE9E1
 Copy CRC D88AE9E1
 Accurately ripped (confidence 3) [FA6E6752] (AR v2)
 Copy OK

Track 14

 Filename E:\14 - New Orleans Rhythm Kings - Wolverine Blues.wav

 Pre-gap length 0:00:03.00

 Peak level 93.3 \%
 Extraction speed 2.0 X
 Track quality 100.0 \%
 Test CRC 018B3352
 Copy CRC 018B3352
 Accurately ripped (confidence 3) [F360AD24] (AR v2)
 Copy OK

Track 15

 Filename E:\15 - New Orleans Rhythm Kings - Maple Leaf Rag.wav

 Pre-gap length 0:00:03.00

 Peak level 93.3 \%
 Extraction speed 2.0 X
 Track quality 100.0 \%
 Test CRC 22EACDBB
 Copy CRC 22EACDBB
 Accurately ripped (confidence 3) [7B840AB5] (AR v2)
 Copy OK

Track 16

 Filename E:\16 - New Orleans Rhythm Kings - Tin Roof Blues.wav

 Pre-gap length 0:00:03.00

 Peak level 66.0 \%
 Extraction speed 2.1 X
 Track quality 100.0 \%
 Test CRC ED1EBA8A
 Copy CRC ED1EBA8A
 Accurately ripped (confidence 3) [23750347] (AR v2)
 Copy OK

Track 17

 Filename E:\17 - New Orleans Rhythm Kings - Sobbin Blues.wav

 Pre-gap length 0:00:03.00

 Peak level 93.3 \%
 Extraction speed 2.1 X
 Track quality 100.0 \%
 Test CRC 28AFB212
 Copy CRC 28AFB212
 Accurately ripped (confidence 3) [F8429A49] (AR v2)
 Copy OK

Track 18

 Filename E:\18 - New Orleans Rhythm Kings - Marguerite.wav

 Pre-gap length 0:00:03.00

 Peak level 93.3 \%
 Extraction speed 2.2 X
 Track quality 100.0 \%
 Test CRC 77DBFE60
 Copy CRC 77DBFE60
 Accurately ripped (confidence 3) [D9C251FB] (AR v2)
 Copy OK

Track 19

 Filename E:\19 - New Orleans Rhythm Kings - Angry.wav

 Pre-gap length 0:00:03.00

 Peak level 53.0 \%
 Extraction speed 2.2 X
 Track quality 100.0 \%
 Test CRC 5668BE67
 Copy CRC 5668BE67
 Accurately ripped (confidence 3) [E1BBB6A3] (AR v2)
 Copy OK

Track 20

 Filename E:\20 - New Orleans Rhythm Kings - Clarinet Marmalade.wav

 Pre-gap length 0:00:03.00

 Peak level 93.3 \%
 Extraction speed 2.2 X
 Track quality 100.0 \%
 Test CRC FB9889E8
 Copy CRC FB9889E8
 Accurately ripped (confidence 3) [B0165708] (AR v2)
 Copy OK

Track 21

 Filename E:\21 - New Orleans Rhythm Kings - Mr. Jelly Lord.wav

 Pre-gap length 0:00:03.00

 Peak level 93.3 \%
 Extraction speed 2.3 X
 Track quality 100.0 \%
 Test CRC 98D16A9C
 Copy CRC 98D16A9C
 Accurately ripped (confidence 3) [20437770] (AR v2)
 Copy OK

Track 22

 Filename E:\22 - New Orleans Rhythm Kings - London Blues.wav

 Pre-gap length 0:00:03.00

 Peak level 93.3 \%
 Extraction speed 2.3 X
 Track quality 100.0 \%
 Test CRC 253DE00C
 Copy CRC 253DE00C
 Accurately ripped (confidence 3) [3C56305A] (AR v2)
 Copy OK

Track 23

 Filename E:\23 - New Orleans Rhythm Kings - Milenberg Joys.wav

 Pre-gap length 0:00:03.00

 Peak level 93.3 \%
 Extraction speed 2.0 X
 Track quality 99.9 \%
 Test CRC 6F5E21F9
 Copy CRC 6F5E21F9
 Accurately ripped (confidence 3) [BD97DD05] (AR v2)
 Copy OK

Track 24

 Filename E:\24 - New Orleans Rhythm Kings - Mad.wav

 Pre-gap length 0:00:03.00

 Peak level 93.3 \%
 Extraction speed 2.4 X
 Track quality 100.0 \%
 Test CRC 9B4B9D24
 Copy CRC 9B4B9D24
 Accurately ripped (confidence 3) [8DE7E1E3] (AR v2)
 Copy OK


All tracks accurately ripped

No errors occurred

End of status report

---- CUETools DB Plugin V2.1.3

[CTDB TOCID: u4BEHYq0PYSC_gdODUI2Xdj4F1s-] disk not present in database, Submit
result: u4BEHYq0PYSC_gdODUI2Xdj4F1s- has been uploaded


==== Log checksum
645648788E4949B48E1B3B8E73DD081FAC20A99B1CC3170B5F3AA13E56AF210D ====

New Orleans Rhythm Kings


Album